#TITLE:Ichirin no hana "huge hollow mix";
#SUBTITLE:;
#ARTIST:High and Mighty Color;
#TITLETRANSLIT:;
#SUBTITLETRANSLIT:;
#ARTISTTRANSLIT:;
#CREDIT:;
#BANNER:Banner.png;
#BACKGROUND:Bleach.png;
#LYRICSPATH:;
#CDTITLE:Codeman.png;
#MUSIC:03 - Ichirin no Hana ~Huge Hollow Mix~.mp3;
#OFFSET:0.000;
#SAMPLESTART:59.946;
#SAMPLELENGTH:12.000;
#SELECTABLE:YES;
#BPMS:0.000=99.990,65.000=199.980,81.000=199.990,188.000=399.981,219.500=399.888,364.000=99.972,447.500=199.944,580.500=399.888,697.500=99.972,699.500=399.888,826.500=99.989;
#STOPS:124.500=0.900
,125.000=0.100
,190.000=0.100
,383.500=0.300
,396.500=0.080
,397.000=0.080
,398.000=0.020
,398.333=0.020
,398.667=0.020
,541.500=0.760
,580.500=0.200
,640.500=0.060
,641.000=0.060
,641.500=0.300
,760.500=0.080
,761.000=0.080
,761.500=0.200
,826.500=9.400
;
#BGCHANGES:0.000=purple stars.avi=1.000=0=0=1,
28.000=watery.avi=1.000=0=0=1,
65.000=red flames.avi=1.000=0=0=1,
81.000=red flames.avi=1.000=0=0=1,
109.000=purple swirls.avi=1.000=0=0=1,
148.000=purple stars.avi=1.000=0=0=1,
190.000=red flames.avi=1.000=0=0=1,
99999=-nosongbg-=1.000=0=0=0 // don't automatically add -songbackground-
;
// cache tags:
#FIRSTBEAT:14.500;
#LASTBEAT:874.000;
#SONGFILENAME:Songs/nhac/Ichirin no hana huge hollow mix/ichirin.sm;
#HASMUSIC:1;
#HASBANNER:1;
#MUSICLENGTH:281.312;
// end cache tags

//---------------dance-single - ----------------
#NOTES:
     dance-single:
     :
     Hard:
     12:
     0.971,1.000,0.345,0.075,0.762,1795.000,97.000,21.000,0.000,13.000:
0000
0000
0000
0000
,
0000
0000
0000
0000
,
0000
0000
0000
0000
,
0000
0000
0000
0000
0000
1000
0010
0100
,
0000
0020
0000
0000
0000
0000
0000
0000
,
0000
0000
0000
0002
0000
0000
0000
0000
0000
0000
0000
0000
0000
0000
0000
0000
,
0000
0033
2000
0000
0000
0000
3002
0000
,
0010
0000
0200
0003
0000
0000
0010
0300
,
0001
0000
0000
0000
1000
0000
1000
0010
0100
0001
1000
0000
0001
0010
1000
0010
,
0100
0001
0010
0100
1000
0100
1000
0010
0001
0010
0001
0100
1000
0100
0010
0001
,
0010
0001
0010
0000
1000
0000
1000
0000
0100
0010
0000
0010
0000
0000
0001
0000
,
0001
1000
0000
1000
0000
0000
0000
0000
0000
0000
0001
0000
0020
0000
0000
0100
,
0030
0000
0001
0000
1000
0000
0001
0000
1000
0100
0002
0000
0000
0000
0013
0000
,
0100
0010
0000
0100
0000
0000
0000
0000
0000
0000
0000
0000
1000
0001
0000
0100
,
0000
0010
0000
0100
0000
0000
0000
0000
0000
0000
1000
0000
0200
0000
0000
0010
,
0300
0000
0002
0000
1000
0000
0003
0000
0000
0000
1000
0100
0000
0100
0010
0000
,
0010
0100
0010
1000
0100
0000
0000
0100
,
0010
0000
0000
0001
1000
0000
0000
0000
,
0000
1001
1100
1001
0000
0000
0000
1001
,
0000
0000
0000
0011
0000
0000
0000
1001
,
0000
0000
0000
0000
1000
0100
1000
0000
0001
0100
0001
0000
0010
0100
0010
0000
,
1000
0100
0001
0000
0001
0100
1000
0000
0010
0100
0010
0000
1000
0100
1000
0000
,
0001
0010
0001
0000
0100
0010
0100
0000
1000
0100
1000
0000
1000
0100
1000
0000
,
0001
0100
0001
0000
0001
0100
0001
0000
1000
0100
0010
0000
0010
0001
1000
0000
,
1000
0010
0100
0000
0100
0010
0100
0000
1000
0001
0100
0000
0100
0010
0001
0000
,
0010
0100
1000
0000
1000
0001
0100
0000
0100
0010
1000
0000
1000
0001
0100
0000
,
0010
0100
0010
0000
0001
0010
0100
0000
1000
0001
0100
0000
0010
0001
1000
0000
,
0010
0100
1000
0000
0100
0010
0001
0000
0100
1000
0001
0000
0100
0010
1000
0000
,
0001
0010
0100
0000
0100
0001
1000
0000
1000
0001
0100
0000
0010
1000
0100
0000
,
0001
0010
0001
0000
0010
0100
0010
0000
0100
1000
0100
0000
1000
0100
1000
0000
,
0100
0010
0100
0000
0010
0001
0010
0000
1000
0001
0100
0000
0100
0010
1000
0000
,
0100
0001
0010
0000
1001
0000
0000
0000
1000
0100
1000
0100
0010
0001
0100
0010
,
1000
0001
0100
0010
0100
0010
0001
0010
0100
1000
0100
0010
0100
0010
0001
1000
,
0001
0100
0010
1000
0100
0001
0100
1000
0010
0001
0010
1000
0001
0100
0010
1000
,
0001
0010
0100
1000
0100
0010
0100
0010
1000
0001
0100
0010
0001
0010
0100
0010
,
0100
1000
0001
0100
0010
1000
0100
0010
0100
1000
0100
0010
0001
0100
0001
0100
,
0001
0100
0001
1000
0001
0100
0001
0010
0001
0100
0001
0010
0100
1000
0010
0100
,
0001
1000
0001
0010
0100
0010
0100
1000
0001
0010
0100
1000
0010
0100
0001
1000
,
0100
0010
0100
1000
0100
0010
0001
0010
0100
1000
0100
0010
0100
1000
0100
0010
,
0100
1000
0001
0000
0101
0000
0011
0000
0001
0010
0100
0010
0100
0010
1000
0001
,
0100
0010
1000
0100
0001
0100
1000
0010
0001
0010
0100
0010
0100
1000
0001
0010
,
0100
1000
0100
0010
0001
0100
0010
1000
0100
0001
0010
0100
1000
0010
0100
0001
,
1000
0001
0010
1000
0010
1000
0010
1000
0100
0010
0001
0100
0010
1000
0100
0010
,
0001
0010
1001
0000
1100
0000
1001
0000
1000
0001
0100
0010
0100
0010
1000
0001
,
1000
0001
1000
0010
0100
0001
1000
0001
0100
0010
1000
0001
0010
0001
0010
0100
,
1000
0010
0100
0001
1000
0001
0010
0100
0010
0100
1000
0100
0010
0001
0010
0100
,
0010
0100
0010
0001
1000
0001
0100
0010
1000
0001
0100
0010
0001
0000
1000
0000
,
2002
0000
3113
0000
,
0000
1000
0100
0001
0100
0001
0100
1000
,
0001
0010
0001
0100
0010
0001
1000
0100
,
0010
0100
1000
0010
1000
0001
0010
1000
,
0001
0010
0100
0010
1000
0001
1000
0001
,
0010
1000
0001
1000
0010
0001
0100
1000
,
0001
0010
0100
1000
0100
0001
0010
1000
,
0001
0010
0100
1000
0010
0001
0100
1000
,
0001
0100
0000
0010
1000
0001
0100
0010
,
0001
0100
0010
1000
0001
0010
0100
0001
,
0100
0001
1000
0010
0001
0100
0010
1000
,
0001
0010
1000
0100
0010
0001
0100
1000
,
0001
0100
0001
0010
1000
0001
0100
0010
,
0001
0100
0010
1000
0100
0010
1000
0100
,
0010
0001
0100
0010
0001
0100
0010
1000
,
0001
0010
1000
0100
0010
0001
0100
1000
,
0000
0010
0001
0100
0010
0001
0010
1000
,
0001
0010
0001
0100
1000
0001
0100
1000
,
0001
0010
1000
0100
0010
0001
0100
0010
,
0001
0100
0010
1000
0100
0010
1000
0100
,
0001
1000
0001
0010
0100
1000
0001
0010
,
1000
0100
0010
0001
0100
0010
0001
0100
,
0010
1000
0001
0010
1000
0100
0010
0001
,
0100
0010
1000
0100
0001
0010
0100
0001
,
0100
0010
1000
0100
0001
0010
0100
0001
,
0100
0010
0001
0100
0001
0010
1000
0010
,
0001
1000
0100
0010
0001
0100
1000
0010
,
0100
0001
0010
0001
0010
0100
1000
0010
,
1000
0100
0010
0001
0100
1000
0100
0010
,
0001
0100
0010
0001
0100
1000
0001
0010
,
1000
0100
0010
0001
0010
0100
1000
0100
,
0010
0001
0100
0010
0001
0100
1000
0001
,
0100
1000
0001
1000
0010
2002
0000
0000
,
0000
0000
0000
0000
,
0000
0000
0000
0000
,
0000
0000
0000
0000
,
0000
0000
0000
0000
,
0000
0000
0000
0000
,
0000
0000
0000
0000
,
0000
0000
0000
0000
,
0000
0000
0000
0000
,
0000
0000
0000
0000
,
0000
0000
0000
0000
,
0000
0000
0000
0000
,
0000
0000
0000
0000
,
0000
0000
0000
0000
0110
3003
0000
0000
1000
0000
0000
0000
0001
0000
0000
0000
0100
0000
0000
0000
0010
0000
0000
0000
1000
0000
0000
0000
0100
0000
0000
0000
,
0000
0000
1000
0000
0100
0010
0100
0000
0010
0000
0001
0000
1000
0010
0100
0000
,
0000
0000
1000
0000
0001
1000
0001
0000
0010
0000
0100
0000
1000
0010
0100
0000
,
0000
0000
0100
0000
0100
0010
0100
0000
0100
0000
0001
0000
0010
0100
0010
0000
,
0001
0000
1000
0001
1000
0000
0100
0000
0010
0000
0001
1000
0100
0000
0000
0000
,
0010
0000
1000
0001
0100
0000
0010
0000
0001
0000
0010
0100
0010
0000
0000
0000
,
0010
0000
1000
0001
0100
0000
0100
0000
0010
0000
0001
0010
0100
0000
0000
0000
,
1000
0000
0000
1001
0000
0000
0110
0000
0000
0000
0000
0000
1100
0000
0101
0000
1100
0000
1100
0000
0000
0000
0000
0000
,
0000
0000
0000
0000
1000
0000
0001
0000
0100
0000
0000
0000
0100
0000
0010
0000
0000
0000
0010
0000
1000
0000
0000
0000
1000
0001
1000
0000
0000
0000
0000
0000
,
0001
0000
0001
0010
0000
0010
0100
0000
0100
0010
0001
0100
0010
0100
0010
0000
,
1000
0000
0000
0000
1000
0000
0100
0000
0000
0000
0100
0000
0010
0000
0000
0000
0010
0000
0001
0000
1000
0000
0000
0000
1000
0001
1000
0000
0000
0000
0000
0000
,
0000
0000
1000
0001
0100
0000
0100
0010
0000
1000
0000
0001
0000
0000
0000
0000
,
1000
0100
1000
0000
0100
0010
0100
0000
1000
0100
1000
0000
0000
0000
0000
0000
,
0001
0000
0010
0000
0001
0000
0000
0000
1000
0000
0001
0000
0100
0000
0000
0000
0100
0000
0010
0000
1000
0000
0000
1000
0100
1000
0100
0000
0000
0000
0000
0000
,
1000
0001
0100
0000
0001
0010
0100
0000
0100
1000
0001
0000
0000
0000
0000
0000
,
1000
0000
0001
0000
0010
0000
0100
0000
1000
0000
0100
0000
1000
0100
1000
0100
0010
0100
0010
0100
1000
0100
1000
0100
1000
0010
0000
0010
1001
0000
0000
0000
,
0000
0000
0000
0000
1000
0100
0010
0001
1000
0100
0010
0001
1000
0100
0010
0001
,
0100
0010
0100
0010
1000
0100
1000
0100
0010
0001
0100
0010
1000
0001
0010
0100
,
1000
0000
0000
0000
0001
0010
0001
0010
0100
1000
0010
0100
0001
0010
0100
0010
0001
0010
0100
0100
1000
0100
1000
0100
0010
0001
0100
0010
1000
0100
0010
0100
,
1000
0001
1000
0001
0100
0010
1000
0100
0010
0001
0100
0010
1000
0100
0010
0100
0010
0100
1000
0100
0001
0100
0010
1000
0010
0100
0000
0000
0100
0000
1000
0000
,
0100
1000
0100
0010
0001
0100
0010
0001
0010
0100
1000
0000
0000
0000
1000
0001
,
0100
0010
1000
0100
0010
0001
0010
0100
1000
0010
0100
0010
0100
0010
0001
0010
,
0100
1000
0010
0100
0010
0100
1000
0100
0010
0001
1000
0000
0000
0000
0001
1000
,
0100
0010
0001
0100
0010
0100
0010
1000
0001
0010
0100
0000
0110
0000
0110
0000
,
0110
1001
0000
0000
0000
1001
0000
0000
,
0000
0011
0000
0000
1000
2200
0000
0000
,
3300
0011
0000
0000
0010
0110
0000
0000
,
1000
0011
0000
1100
1001
0011
1100
1001
,
0011
1000
0100
0010
0001
0100
0010
0100
1000
0100
0010
0000
0000
0000
0010
0001
,
1000
0010
0100
0001
1000
0100
0010
0001
0010
0100
1000
0100
0010
0001
0100
0010
,
1000
0100
0010
0001
0100
0010
1000
0001
0100
0010
0100
0000
0000
0000
1000
0001
,
0100
0010
0001
0010
0100
1000
0010
0100
0001
1000
0100
0000
0011
0000
1100
0000
,
0011
1000
0001
0010
0100
1000
0010
0100
0010
0100
1000
0000
0000
0000
1000
0001
,
0010
0100
1000
0010
0100
0001
1000
0100
0010
0001
0010
0100
1000
0010
0100
0001
,
1000
0100
0010
0001
1000
0010
0100
0001
1000
0100
0010
0000
0000
0000
0001
1000
,
0001
1000
0100
0010
0001
0100
0010
0100
0010
0001
0010
0000
1100
0000
0101
0000
,
1100
0001
0010
0100
1000
0010
0100
0001
1000
0100
0010
0000
0000
0000
1000
0001
,
1000
0100
0010
0001
0100
0010
1000
0100
0010
0001
0010
0001
0100
1000
0010
0100
,
0001
1000
0100
0010
0001
0010
0100
0000
1000
0001
0100
0000
0000
0000
1000
0100
,
0010
0100
1000
0100
0010
0001
0010
0100
1000
0010
0100
0000
0011
0000
0011
0000
,
1001
1000
0100
0010
0001
0100
0010
0001
0010
0100
1000
0000
0000
0000
0001
0010
,
0100
1000
0010
0100
0001
1000
0100
0010
0001
0100
0010
1000
0100
0010
0001
0010
,
0100
1000
0001
1000
0001
1000
0100
0010
0001
0100
0010
0000
0000
0000
1000
0000
,
1001
0000
0011
0000
1001
0000
1100
2002
0000
0000
0000
0000
0000
0000
0000
0000
,
0000
0000
0000
0000
,
0000
0000
0000
0000
,
0000
0000
0000
0000
,
0000
0000
0100
3013
0100
0010
1001
0000
0000
0000
1000
0000
0010
0000
1001
0000
,
0000
0001
0010
1100
0000
0100
0010
1001
,
0011
1001
1100
1001
0000
0010
1000
0101
,
0000
0001
0010
0011
0000
0100
0100
0110
,
0000
1000
0001
2002
0000
0000
0000
0000
,
0000
0000
0000
0000
0000
0000
0100
0010
0100
0010
0100
0000
0100
0000
0010
0000
,
0010
3103
0000
1000
0001
0100
0010
1000
,
0001
0010
0100
1000
0010
0100
0010
0100
,
1000
0100
0010
0001
0010
0100
1000
0010
,
0100
0001
1000
0001
0100
0010
0100
0010
,
0001
0010
0100
1000
0010
0100
0010
0100
,
0001
1000
0001
1000
0100
0001
0100
1000
,
0010
0001
0010
1000
0001
0100
0010
1000
,
0100
0010
0001
0010
0100
0010
0100
0110
,
0000
1001
0000
0110
1000
0001
0100
0010
,
1000
0100
0010
0100
0010
0100
1000
0100
,
0010
0001
0010
0001
0010
0100
1000
0010
,
0100
0001
1000
0001
1000
0100
0001
0100
,
1000
0010
0001
0010
0100
0010
0001
0010
,
0100
1000
0100
0010
0001
0010
0100
1000
,
0010
0100
0001
1000
0100
0010
0001
0100
,
0010
1001
0110
1001
0000
0001
1000
0001
,
1000
0100
0010
0001
0010
0100
1000
0010
,
0100
0001
1000
0100
0010
0100
1000
0100
,
0010
0001
0010
0100
0010
0001
0010
0100
,
1000
0010
0100
0001
1000
0001
1000
0100
,
0010
0100
1000
0100
0010
0001
0010
0100
,
1000
0010
0100
0001
1000
0001
1000
0100
,
0010
0100
0010
0001
0010
0001
0010
1001
,
0000
0011
0000
1100
0001
0010
0100
1000
,
0010
0100
0010
0100
1000
0001
1000
0001
,
1000
1000
0001
0001
0010
0100
1000
0010
,
0100
0001
0010
0100
1000
0100
0010
0001
,
0010
0100
1000
0010
0100
0001
1000
0001
,
0010
0100
0010
0001
0010
0100
1000
0010
,
0100
0000
0001
0000
1000
0000
0001
0000
1000
0000
0100
0010
1000
0010
1000
0000
,
0100
0010
0100
1000
0100
0010
0001
0100
,
0010
1000
0001
1000
0100
0010
0001
0010
,
0100
0010
0100
1000
0001
0100
0010
1000
,
0001
0100
0010
1000
0100
0010
0001
1000
,
0100
0010
0001
0100
0010
0100
0010
1000
,
0001
0100
0010
1000
0001
0100
0010
0100
,
0010
1000
0001
1000
0100
0010
1000
0100
,
0010
0001
0100
0010
1000
0001
0100
0010
,
1000
0001
0010
0100
1000
0001
0010
0100
,
1000
0010
0100
0001
1000
0100
0010
0001
,
1000
0100
0010
0001
1000
0001
0010
0100
,
1000
0010
0100
0001
1000
0100
0010
0001
,
0100
0010
1000
0001
0100
0010
1000
0001
,
0100
0010
1000
0001
0100
0010
0001
0100
,
0010
1000
0100
0010
0001
0010
0100
1000
,
0010
0110
0011
1100
0000
0001
0100
0010
,
1000
0001
0100
0010
1000
0001
0100
0010
,
1000
0001
0010
0001
0010
0001
0010
0001
,
0100
1000
0100
1000
0100
1000
0100
0010
,
0001
0010
0001
0100
1000
0100
1000
0010
,
0100
0001
1000
0001
1000
0001
0100
0001
,
0100
0001
0010
0001
1000
0001
0100
0001
,
1000
0001
0010
0100
1000
0100
1000
0001
,
1000
0100
1000
0001
1000
0010
1000
0010
,
0100
0010
0001
0010
0100
1000
0010
0100
,
0001
1000
0100
0001
0010
0100
1000
0010
,
0100
0001
1000
0001
1000
0100
0010
0100
,
1000
0100
0010
0100
0010
0100
0010
1000
,
0100
0010
0001
0100
0010
1000
0001
0100
,
0010
1000
0001
0100
0010
0001
0010
0100
,
1000
0010
0100
0001
1000
0100
0010
0100
,
1000
0000
0001
0000
0100
0000
0010
0000
1000
0000
0100
1000
0000
0000
0000
0000
,
0000
1001
1100
0000
0000
1001
0000
0000
,
0000
0011
1001
0000
0000
1100
0000
0000
,
0000
0011
0011
0000
0000
1000
0000
0000
,
0000
0110
1100
0000
0000
0011
0000
0000
,
0000
0011
1001
0000
0000
1100
0000
0000
,
0000
1100
1001
0000
0000
0001
0000
0000
,
0000
0100
1000
0000
0000
1001
0000
0000
,
0000
0011
0011
0000
0000
2002
0000
0000
,
0000
0000
0000
0000
,
0000
0000
0000
0000
,
0000
0000
0000
0000
,
0000
0000
3003
0000
;

//---------------dance-single - ----------------
#NOTES:
     dance-single:
     :
     Easy:
     1:
     0.000,0.000,0.000,0.000,0.000,0.000,0.000,0.000,0.000,0.000:
0000
0000
0000
0000
;
